|
Бегущий человек / The Running Man (1987) BDRip 1080p
Бегущий человек / The Running Man (1987) BDRip 1080p


О фильме:
К 2017 году излюбленным развлечением для жителей Америки, превратившейся в полувоенное государство, стало садистское телешоу «Бегущий человек», участники которого — невинные жертвы — не имели ни единого шанса на выживание.

Среди них оказался полицейский Бэн Ричардс (Арнольд Шварценеггер), отказавшийся расстрелять безоружную толпу голодных людей. Теперь вместе с собратьями по несчастью ему предстоит принять участие в безумной гонке со смертью, сразиться с непобедимыми монстрами — Профессором Крио, Бензопилой, Шаровой Молнией и Динамо, и отомстить бесчеловечному хозяину шоу.

Информация о фильме
Название: Бегущий человек
Оригинальное название: The Running Man
Год выхода: 1987
Жанр: фантастика, боевик, триллер
Режиссер: Пол Майкл Глейзер
В ролях: Арнольд Шварценеггер, Мария Кончита Алонсо, Яфет Котто, Джим Браун, Джесси Вентура, Эрланд ван Лидт, Марвин Дж. МакИнтайр, Гас Ретвиш, профессор Тору Танака, Мик Флитвуд

Страна: США
Продолжительность: 01:40:43
Перевод: Многоголосый закадровый, Карусель + Одноголосый закадровый, А.Гаврилов + Двухголосый закадровый, R5

Файл
Кодек: x.264
Качество: BDRip 1080p
Видео: 8540 kb/s, 1920x1080, 23.976 fps
Звук:
AC3, 448 kb/s (6Ch)-Многоголосый закадровый, Карусель
AC3, 448 kb/s (6Ch)-Одноголосый закадровый, А.Гаврилов
AC3, 448 kb/s (6Ch)-Двухголосый закадровый, R5
DTS-HD MA, 1510 kb/s (6Ch)-Оригинал
Субтитры:
Russian, English, English (SDH)
Размер: 7.93 GB

Сохранены чаптеры Blu-Ray

СЕМПЛ ( //multi-up.com/426928 )

Mediainfo

General
Format : Matroska
File size : 7.93 GiB
Duration : 1h 40mn
Overall bit rate : 11.3 Mbps
Movie name : Бегущий человек / The Running Man (1987) BDRip 1080p-Rip by Neofilm for Lazeek.info
Encoded date : UTC 2011-02-06 06:12:27
Writing application : mkvmerge v4.1.1 ('Bouncin' Back') сборка от Jul 3 2010 22:54:08
Writing library : libebml v1.0.0 + libmatroska v1.0.0

Video
ID : 1
Format : AVC
Format/Info : Advanced Video Codec
Format profile : High@L4.1
Format settings, CABAC : Yes
Format settings, ReFrames : 4 frames
Muxing mode : Container profile=Unknown@4.1
Codec ID : V_MPEG4/ISO/AVC
Duration : 1h 40mn
Bit rate : 8 450 Kbps
Width : 1 920 pixels
Height : 1 080 pixels
Display aspect ratio : 16:9
Frame rate : 23.976 fps
Color space : YUV
Chroma subsampling : 4:2:0
Bit depth : 8 bits
Scan type : Progressive
Bits/(Pixel*Frame) : 0.170
Stream size : 5.77 GiB (73%)
Title : Бегущий человек / The Running Man (1987)
Writing library : x264 core 112 r1867 22bfd31
Encoding settings : cabac=1 / ref=4 / deblock=1:-1:-1 / analyse=0x3:0x113 / me=umh / subme=9 / psy=1 / psy_rd=1.05:0.05 / mixed_ref=1 / me_range=32 / chroma_me=1 / trellis=2 / 8x8dct=1 / cqm=0 / deadzone=21,11 / fast_pskip=0 / chroma_qp_offset=-3 / threads=6 / sliced_threads=0 / nr=0 / decimate=0 / interlaced=0 / constrained_intra=0 / bframes=3 / b_pyramid=2 / b_adapt=2 / b_bias=0 / direct=3 / weightb=1 / open_gop=0 / weightp=2 / keyint=250 / keyint_min=23 / scenecut=40 / intra_refresh=0 / rc_lookahead=40 / rc=abr / mbtree=1 / bitrate=8450 / ratetol=1.5 / qcomp=0.60 / qpmin=10 / qpmax=51 / qpstep=4 / vbv_maxrate=40000 / vbv_bufsize=40000 / nal_hrd=none / ip_ratio=1.40 / aq=1:1.00

Audio #1
ID : 2
Format : AC-3
Format/Info : Audio Coding 3
Mode extension : CM (complete main)
Codec ID : A_AC3
Duration : 1h 40mn
Bit rate mode : Constant
Bit rate : 448 Kbps
Channel(s) : 6 channels
Channel positions : Front: L C R, Side: L R, LFE
Sampling rate : 48.0 KHz
Bit depth : 16 bits
Stream size : 323 MiB (4%)
Title : Многоголосый закадровый, Карусель
Language : Russian

Audio #2
ID : 3
Format : AC-3
Format/Info : Audio Coding 3
Mode extension : CM (complete main)
Codec ID : A_AC3
Duration : 1h 40mn
Bit rate mode : Constant
Bit rate : 448 Kbps
Channel(s) : 6 channels
Channel positions : Front: L C R, Side: L R, LFE
Sampling rate : 48.0 KHz
Bit depth : 16 bits
Stream size : 323 MiB (4%)
Title : Одноголосый закадровый, А.Гаврилов
Language : Russian

Audio #3
ID : 4
Format : AC-3
Format/Info : Audio Coding 3
Mode extension : CM (complete main)
Codec ID : A_AC3
Duration : 1h 40mn
Bit rate mode : Constant
Bit rate : 448 Kbps
Channel(s) : 6 channels
Channel positions : Front: L C R, Side: L R, LFE
Sampling rate : 48.0 KHz
Bit depth : 16 bits
Stream size : 323 MiB (4%)
Title : Двухголосый закадровый, R5
Language : Russian

Audio #4
ID : 5
Format : DTS
Format/Info : Digital Theater Systems
Codec ID : A_DTS
Duration : 1h 40mn
Bit rate mode : Constant
Bit rate : 1 510 Kbps
Channel(s) : 6 channels
Channel positions : Front: L C R, Side: L R, LFE
Sampling rate : 48.0 KHz
Bit depth : 24 bits
Stream size : 1.06 GiB (13%)
Title : Оригинал

Text #1
ID : 6
Format : PGS
Codec ID : S_HDMV/PGS
Codec ID/Info : The same subtitle format used on BDs/HD-DVDs
Title : Russian
Language : Russian

Text #2
ID : 7
Format : PGS
Codec ID : S_HDMV/PGS
Codec ID/Info : The same subtitle format used on BDs/HD-DVDs
Title : English

Text #3
ID : 8
Format : PGS
Codec ID : S_HDMV/PGS
Codec ID/Info : The same subtitle format used on BDs/HD-DVDs
Title : English (SDH)

Menu
00:00:00.000 : en:Chapter 00
00:03:21.576 : en:Chapter 01
00:09:36.158 : en:Chapter 02
00:14:31.537 : en:Chapter 03
00:16:36.704 : en:Chapter 04
00:21:57.357 : en:Chapter 05
00:24:32.012 : en:Chapter 06
00:27:58.385 : en:Chapter 07
00:34:06.711 : en:Chapter 08
00:39:19.315 : en:Chapter 09
00:43:57.885 : en:Chapter 10
00:45:14.962 : en:Chapter 11
00:49:27.381 : en:Chapter 12
00:53:38.632 : en:Chapter 13
00:57:17.183 : en:Chapter 14
01:02:37.170 : en:Chapter 15
01:05:09.488 : en:Chapter 16
01:09:18.195 : en:Chapter 17
01:14:34.970 : en:Chapter 18
01:18:05.430 : en:Chapter 19
01:22:41.122 : en:Chapter 20
01:25:50.395 : en:Chapter 21
01:29:39.665 : en:Chapter 22
01:34:29.037 : en:Chapter 23



СКРИНШОТЫ
Бегущий человек / The Running Man (1987) BDRip 1080p Бегущий человек / The Running Man (1987) BDRip 1080p Бегущий человек / The Running Man (1987) BDRip 1080p




Скачать | Download с letitbit.net

Скачать | Download с vip-file.com

Скачать | Download с shareflare.net

Rapidshare.com - 200мв
//rapidshare.com/files/350574098/Begushiy.chelovek.1987.BDRip.1080p.part01.rar
//rapidshare.com/files/350574701/Begushiy.chelovek.1987.BDRip.1080p.part02.rar
//rapidshare.com/files/350575252/Begushiy.chelovek.1987.BDRip.1080p.part03.rar
//rapidshare.com/files/350575834/Begushiy.chelovek.1987.BDRip.1080p.part04.rar
//rapidshare.com/files/350576301/Begushiy.chelovek.1987.BDRip.1080p.part05.rar
//rapidshare.com/files/350576852/Begushiy.chelovek.1987.BDRip.1080p.part06.rar
//rapidshare.com/files/350577394/Begushiy.chelovek.1987.BDRip.1080p.part07.rar
//rapidshare.com/files/350577910/Begushiy.chelovek.1987.BDRip.1080p.part08.rar
//rapidshare.com/files/350578382/Begushiy.chelovek.1987.BDRip.1080p.part09.rar
//rapidshare.com/files/350578889/Begushiy.chelovek.1987.BDRip.1080p.part10.rar
//rapidshare.com/files/350579449/Begushiy.chelovek.1987.BDRip.1080p.part11.rar
//rapidshare.com/files/350580110/Begushiy.chelovek.1987.BDRip.1080p.part12.rar
//rapidshare.com/files/350580707/Begushiy.chelovek.1987.BDRip.1080p.part13.rar
//rapidshare.com/files/350581207/Begushiy.chelovek.1987.BDRip.1080p.part14.rar
//rapidshare.com/files/350581901/Begushiy.chelovek.1987.BDRip.1080p.part15.rar
//rapidshare.com/files/350582438/Begushiy.chelovek.1987.BDRip.1080p.part16.rar
//rapidshare.com/files/350582918/Begushiy.chelovek.1987.BDRip.1080p.part17.rar
//rapidshare.com/files/350583540/Begushiy.chelovek.1987.BDRip.1080p.part18.rar
//rapidshare.com/files/350574227/Begushiy.chelovek.1987.BDRip.1080p.part19.rar
//rapidshare.com/files/350574793/Begushiy.chelovek.1987.BDRip.1080p.part20.rar
//rapidshare.com/files/350575419/Begushiy.chelovek.1987.BDRip.1080p.part21.rar
//rapidshare.com/files/350576090/Begushiy.chelovek.1987.BDRip.1080p.part22.rar
//rapidshare.com/files/350576571/Begushiy.chelovek.1987.BDRip.1080p.part23.rar
//rapidshare.com/files/350577107/Begushiy.chelovek.1987.BDRip.1080p.part24.rar
//rapidshare.com/files/350577683/Begushiy.chelovek.1987.BDRip.1080p.part25.rar
//rapidshare.com/files/350578192/Begushiy.chelovek.1987.BDRip.1080p.part26.rar
//rapidshare.com/files/350578697/Begushiy.chelovek.1987.BDRip.1080p.part27.rar
//rapidshare.com/files/350579257/Begushiy.chelovek.1987.BDRip.1080p.part28.rar
//rapidshare.com/files/350579820/Begushiy.chelovek.1987.BDRip.1080p.part29.rar
//rapidshare.com/files/350580373/Begushiy.chelovek.1987.BDRip.1080p.part30.rar
//rapidshare.com/files/350580903/Begushiy.chelovek.1987.BDRip.1080p.part31.rar
//rapidshare.com/files/350581480/Begushiy.chelovek.1987.BDRip.1080p.part32.rar
//rapidshare.com/files/350581977/Begushiy.chelovek.1987.BDRip.1080p.part33.rar
//rapidshare.com/files/350582595/Begushiy.chelovek.1987.BDRip.1080p.part34.rar
//rapidshare.com/files/350583079/Begushiy.chelovek.1987.BDRip.1080p.part35.rar
//rapidshare.com/files/350583631/Begushiy.chelovek.1987.BDRip.1080p.part36.rar
//rapidshare.com/files/350574387/Begushiy.chelovek.1987.BDRip.1080p.part37.rar
//rapidshare.com/files/350574975/Begushiy.chelovek.1987.BDRip.1080p.part38.rar
//rapidshare.com/files/350575569/Begushiy.chelovek.1987.BDRip.1080p.part39.rar
//rapidshare.com/files/350576063/Begushiy.chelovek.1987.BDRip.1080p.part40.rar
//rapidshare.com/files/350576546/Begushiy.chelovek.1987.BDRip.1080p.part41.rar
//rapidshare.com/files/350577063/Begushiy.chelovek.1987.BDRip.1080p.part42.rar
//rapidshare.com/files/350577629/Begushiy.chelovek.1987.BDRip.1080p.part43.rar
//rapidshare.com/files/350578196/Begushiy.chelovek.1987.BDRip.1080p.part44.rar
//rapidshare.com/files/350578763/Begushiy.chelovek.1987.BDRip.1080p.part45.rar
//rapidshare.com/files/350579264/Begushiy.chelovek.1987.BDRip.1080p.part46.rar
//rapidshare.com/files/350579789/Begushiy.chelovek.1987.BDRip.1080p.part47.rar
//rapidshare.com/files/350580359/Begushiy.chelovek.1987.BDRip.1080p.part48.rar
//rapidshare.com/files/350580868/Begushiy.chelovek.1987.BDRip.1080p.part49.rar
//rapidshare.com/files/350581343/Begushiy.chelovek.1987.BDRip.1080p.part50.rar
//rapidshare.com/files/350581851/Begushiy.chelovek.1987.BDRip.1080p.part51.rar
//rapidshare.com/files/350582411/Begushiy.chelovek.1987.BDRip.1080p.part52.rar
//rapidshare.com/files/350582593/Begushiy.chelovek.1987.BDRip.1080p.part53.rar


Добавил promoposter 7-02-2011, 19:39 Просмотров: 582 069
Уважаемый посетитель, Вы зашли на сайт как незарегистрированный пользователь. Мы рекомендуем Вам зарегистрироваться либо зайти на сайт под своим именем.