|
Скотт Пилигрим против всех / Scott Pilgrim vs. the World (2010) BDRip 1080p
Скотт Пилигрим против всех / Scott Pilgrim vs. the World (2010) BDRip 1080p


Информация о фильме
Название: Скотт Пилигрим против всех
Оригинальное название: Scott Pilgrim vs. the World
Год выхода: 2010
Жанр: фэнтези, боевик, мелодрама, комедия, музыка
Режиссер: Эдгар Райт
В ролях: Майкл Сера, Мэри Элизабет Уинстэд, Киран Калкин, Анна Кендрик, Крис Эванс, Джонни Симмонс, Эллен Вонг, Брэндон Рут, Джейсон Шварцман, Элисон Пилл

О фильме:
Скотт Пилигрим нашел девушку своей мечты. Но на его пути стоит более сложная задача: чтобы встречаться с ней, Скотту придется победить ее семерых бывших и очень злых парней.

Страна: США, Канада, Великобритания
Студия: Universal
Продолжительность: 01:52:18
Перевод: Дублированный + Авторский (одноголосый, закадровый) В. Котов

Файл
Кодек: x.264
Качество: BDRip 1080p
Видео: 9640 kb/s (abr), 1920x1040, 23.976 fps
Звук: AC3, 448 kb/s (6Ch)-Дублированный + DTS-HD MA, 1510 kb/s (6Ch)-Оригинал + AC3, 448 kb/s (6Ch)-Авторский (одноголосый, закадровый) В. Котов
Субтитры:
Субтитры 1: Russian-Force
Субтитры 2: Russian-DVD R5
Субтитры 3: Russian-Doctor Joker
Субтитры 4: English
Субтитры 5: English-SDH
Сохранены чаптеры Blu-Ray
Размер: 7.71 GB

Семпл ( //multi-up.com/425897 )

Mediainfo

General
Format : Matroska
File size : 7.71 GiB
Duration : 1h 52mn
Overall bit rate : 9 822 Kbps
Movie name : Скотт Пилигрим против всех / Scott Pilgrim vs. the World (2010) BDRip 1080p-Rip by Neofilm for Lazeek.info
Encoded date : UTC 2011-02-04 16:01:46
Writing application : mkvmerge v4.1.1 ('Bouncin' Back') сборка от Jul 3 2010 22:54:08
Writing library : libebml v1.0.0 + libmatroska v1.0.0

Video
ID : 1
Format : AVC
Format/Info : Advanced Video Codec
Format profile : High@L4.1
Format settings, CABAC : Yes
Format settings, ReFrames : 4 frames
Format settings, GOP : M=3, N=16
Muxing mode : Container profile=Unknown@4.1
Codec ID : V_MPEG4/ISO/AVC
Duration : 1h 52mn
Bit rate : 7 221 Kbps
Nominal bit rate : 9 640 Kbps
Width : 1 920 pixels
Height : 1 040 pixels
Display aspect ratio : 16:9
Frame rate : 23.976 fps
Color space : YUV
Chroma subsampling : 4:2:0
Bit depth : 8 bits
Scan type : Progressive
Bits/(Pixel*Frame) : 0.151
Stream size : 5.67 GiB (74%)
Title : Скотт Пилигрим против всех / Scott Pilgrim vs. the World (2010)
Writing library : x264 core 112 r1867 22bfd31
Encoding settings : cabac=1 / ref=4 / deblock=1:-1:-1 / analyse=0x3:0x113 / me=umh / subme=10 / psy=1 / psy_rd=1.00:0.00 / mixed_ref=1 / me_range=32 / chroma_me=1 / trellis=2 / 8x8dct=1 / cqm=0 / deadzone=21,11 / fast_pskip=0 / chroma_qp_offset=-2 / threads=6 / sliced_threads=0 / nr=0 / decimate=0 / interlaced=0 / constrained_intra=0 / bframes=2 / b_pyramid=2 / b_adapt=2 / b_bias=0 / direct=3 / weightb=1 / open_gop=0 / weightp=2 / keyint=250 / keyint_min=23 / scenecut=40 / intra_refresh=0 / rc_lookahead=40 / rc=abr / mbtree=1 / bitrate=9640 / ratetol=1.4 / qcomp=0.60 / qpmin=10 / qpmax=51 / qpstep=4 / vbv_maxrate=40000 / vbv_bufsize=40000 / nal_hrd=none / ip_ratio=1.40 / aq=1:1.00

Audio #1
ID : 2
Format : AC-3
Format/Info : Audio Coding 3
Mode extension : CM (complete main)
Codec ID : A_AC3
Duration : 1h 52mn
Bit rate mode : Constant
Bit rate : 448 Kbps
Channel(s) : 6 channels
Channel positions : Front: L C R, Side: L R, LFE
Sampling rate : 48.0 KHz
Bit depth : 16 bits
Stream size : 360 MiB (5%)
Title : Русский Dolby Digital 5.1 (448 kbps) (Дубляж)
Language : Russian

Audio #2
ID : 3
Format : DTS
Format/Info : Digital Theater Systems
Codec ID : A_DTS
Duration : 1h 52mn
Bit rate mode : Constant
Bit rate : 1 510 Kbps
Channel(s) : 6 channels
Channel positions : Front: L C R, Side: L R, LFE
Sampling rate : 48.0 KHz
Bit depth : 24 bits
Stream size : 1.19 GiB (15%)
Title : Английский DTS-HD MA 5.1

Audio #3
ID : 4
Format : AC-3
Format/Info : Audio Coding 3
Mode extension : CM (complete main)
Codec ID : A_AC3
Duration : 1h 52mn
Bit rate mode : Constant
Bit rate : 448 Kbps
Channel(s) : 6 channels
Channel positions : Front: L C R, Side: L R, LFE
Sampling rate : 48.0 KHz
Bit depth : 16 bits
Stream size : 360 MiB (5%)
Title : Авторский (одноголосый, закадровый) В. Котов
Language : Russian

Text #1
ID : 5
Format : UTF-8
Codec ID : S_TEXT/UTF8
Codec ID/Info : UTF-8 Plain Text
Title : Forced
Language : Russian

Text #2
ID : 6
Format : UTF-8
Codec ID : S_TEXT/UTF8
Codec ID/Info : UTF-8 Plain Text
Title : DVD R5
Language : Russian

Text #3
ID : 7
Format : UTF-8
Codec ID : S_TEXT/UTF8
Codec ID/Info : UTF-8 Plain Text
Title : Doctor_Joker
Language : Russian

Text #4
ID : 8
Format : UTF-8
Codec ID : S_TEXT/UTF8
Codec ID/Info : UTF-8 Plain Text
Title : Full

Text #5
ID : 9
Format : UTF-8
Codec ID : S_TEXT/UTF8
Codec ID/Info : UTF-8 Plain Text
Title : SDH

Menu
00:00:00.000 : en:Chapter 1
00:07:24.319 : en:Chapter 2
00:13:14.669 : en:Chapter 3
00:20:01.242 : en:Chapter 4
00:26:01.143 : en:Chapter 5
00:30:50.223 : en:Chapter 6
00:38:52.747 : en:Chapter 7
00:45:25.681 : en:Chapter 8
00:50:18.515 : en:Chapter 9
00:53:55.065 : en:Chapter 10
00:59:15.844 : en:Chapter 11
01:03:10.328 : en:Chapter 12
01:08:05.206 : en:Chapter 13
01:14:23.751 : en:Chapter 14
01:20:19.023 : en:Chapter 15
01:27:47.512 : en:Chapter 16
01:30:43.772 : en:Chapter 17
01:39:14.198 : en:Chapter 18
01:40:49.794 : en:Chapter 19
01:48:34.466 : en:Chapter 20


СКРИНШОТЫ
Скотт Пилигрим против всех / Scott Pilgrim vs. the World (2010) BDRip 1080p Скотт Пилигрим против всех / Scott Pilgrim vs. the World (2010) BDRip 1080p Скотт Пилигрим против всех / Scott Pilgrim vs. the World (2010) BDRip 1080p




Добавил promoposter 5-02-2011, 15:38 Просмотров: 253 805
Уважаемый посетитель, Вы зашли на сайт как незарегистрированный пользователь. Мы рекомендуем Вам зарегистрироваться либо зайти на сайт под своим именем.